Home / Winter's Bone (2010) (1080p x265 HEVC 10bit AAC 5 1) [Prof]

Winter's Bone (2010) (1080p x265 HEVC 10bit AAC 5 1) [Prof]

date added 1 week ago   
post views 24 views   
torrent id ID: 496576

Torrent Description: This is a New Way to Download The Movie Winter's Bone (2010) (1080p x265 HEVC 10bit AAC 5 1) [Prof] Movie Torrent in HD Quality. Winter's Bone (2010) (1080p x265 HEVC 10bit AAC 5 1) [Prof] DVD Print, 1080p, 720p and Bluray. If you facing any problem Downloading Winter's Bone (2010) (1080p x265 HEVC 10bit AAC 5 1) [Prof] Movie Torrent. Scroll Down to Get Download Link.

  • Category : Movies
  • Type : HEVC/x265
  • Language : English
  • Total size : 3.0 GB
  • Uploaded By : Prof-Prof

Format : Matroska
Format version : Version 4 / Version 2
File size : 2.99 GiB
Duration : 1 h 40 min
Overall bit rate : 4 265 kb/s
Movie name : Winter's Bone BD
Encoded date : UTC 2018-05-14 18:47:45
Writing application : mkvmerge v9.6.0 ('Slave To Your Mind') 64bit
Writing library : libebml v1.3.4 + libmatroska v1.4.5

Video
ID : 1
Format : HEVC
Format/Info : High Efficiency Video Coding
Format profile : Main [email protected]@Main
Codec ID : V_MPEGH/ISO/HEVC
Duration : 1 h 40 min
Bit rate : 3 579 kb/s
Width : 1 920 pixels
Height : 1 080 pixels
Display aspect ratio : 16:9
Frame rate mode : Constant
Frame rate : 23.976 (24000/1001) FPS
Color space : YUV
Chroma subsampling : 4:2:0
Bit depth : 10 bits
Bits/(Pixel*Frame) : 0.072
Stream size : 2.51 GiB (84%)
Writing library : x265 2.1+69-c97c64ab8b8e:[Windows][GCC 6.2.0][64 bit] 10bit
Encoding settings : cpuid=1173503 / frame-threads=2 / numa-pools=4 / wpp / no-pmode / no-pme / no-psnr / no-ssim / log-level=2 / input-csp=1 / input-res=1920x1080 / interlace=0 / total-frames=144166 / level-idc=0 / high-tier=1 / uhd-bd=0 / ref=4 / no-allow-non-conformance / no-repeat-headers / annexb / no-aud / no-hrd / info / hash=0 / no-temporal-layers / open-gop / min-keyint=23 / keyint=250 / bframes=4 / b-adapt=2 / b-pyramid / bframe-bias=0 / rc-lookahead=25 / lookahead-slices=4 / scenecut=40 / no-intra-refresh / ctu=64 / min-cu-size=8 / rect / no-amp / max-tu-size=32 / tu-inter-depth=1 / tu-intra-depth=1 / limit-tu=0 / rdoq-level=2 / signhide / no-tskip / nr-intra=0 / nr-inter=0 / no-constrained-intra / strong-intra-smoothing / max-merge=3 / limit-refs=3 / limit-modes / me=3 / subme=3 / merange=57 / temporal-mvp / weightp / no-weightb / no-analyze-src-pics / deblock=0:0 / sao / no-sao-non-deblock / rd=4 / no-early-skip / rskip / no-fast-intra / no-tskip-fast / no-cu-lossless / no-b-intra / rdpenalty=0 / psy-rd=2.00 / psy-rdoq=1.00 / no-rd-refine / analysis-mode=0 / no-lossless / cbqpoffs=0 / crqpoffs=0 / rc=crf / crf=18.0 / qcomp=0.60 / qpstep=4 / stats-write=0 / stats-read=0 / ipratio=1.40 / pbratio=1.30 / aq-mode=1 / aq-strength=1.00 / cutree / zone-count=0 / no-strict-cbr / qg-size=32 / no-rc-grain / qpmax=69 / qpmin=0 / sar=0 / overscan=0 / videoformat=5 / range=0 / colorprim=2 / transfer=2 / colormatrix=2 / chromaloc=0 / display-window=0 / max-cll=0,0 / min-luma=0 / max-luma=1023 / log2-max-poc-lsb=8 / vui-timing-info / vui-hrd-info / slices=1 / opt-qp-pps / opt-ref-list-length-pps / no-multi-pass-opt-rps / scenecut-bias=0.05
Default : Yes
Forced : No

Audio
ID : 2
Format : AAC
Format/Info : Advanced Audio Codec
Format profile : LC
Codec ID : A_AAC
Duration : 1 h 40 min
Bit rate : 638 kb/s
Channel(s) : 6 channels
Channel positions : Front: L C R, Side: L R, LFE
Sampling rate : 48.0 kHz
Frame rate : 46.875 FPS (1024 spf)
Compression mode : Lossy
Delay relative to video : 9 ms
Stream size : 457 MiB (15%)
Language : English
Default : No
Forced : No

Text #1
ID : 3
Format : PGS
Muxing mode : zlib
Codec ID : S_HDMV/PGS
Codec ID/Info : Picture based subtitle format used on BDs/HD-DVDs
Duration : 1 h 38 min
Bit rate : 9 742 b/s
Count of elements : 1982
Stream size : 6.86 MiB (0%)
Language : English
Default : No
Forced : No

Text #2
ID : 4
Format : PGS
Muxing mode : zlib
Codec ID : S_HDMV/PGS
Codec ID/Info : Picture based subtitle format used on BDs/HD-DVDs
Duration : 1 h 39 min
Bit rate : 35.8 kb/s
Count of elements : 2242
Stream size : 25.5 MiB (1%)
Language : English
Default : No
Forced : No

Menu
00:00:00.000 : en:Chapter 01
00:10:03.352 : en:Chapter 02
00:18:49.503 : en:Chapter 03
00:28:04.641 : en:Chapter 04
00:35:35.591 : en:Chapter 05
00:46:15.647 : en:Chapter 06
00:58:21.998 : en:Chapter 07
01:05:14.201 : en:Chapter 08
01:15:54.174 : en:Chapter 09
01:19:19.504 : en:Chapter 10
01:26:35.356 : en:Chapter 11
01:31:06.836 : en:Chapter 12

DOWNLOAD LINK

Winter's Bone (2010) (1080p x265 HEVC 10bit AAC 5 1) [Prof] Winter's Bone (2010) (1080p x265 HEVC 10bit AAC 5 1) [Prof]


Latest Top Searches of peoples:

Download Winter's Bone (2010) (1080p x265 HEVC 10bit AAC 5 1) [Prof] Full Movie Torrent HD Quality.

Torrent Winter's Bone (2010) (1080p x265 HEVC 10bit AAC 5 1) [Prof] Download

Download Free Winter's Bone (2010) (1080p x265 HEVC 10bit AAC 5 1) [Prof] Torrent

Download Winter's Bone (2010) (1080p x265 HEVC 10bit AAC 5 1) [Prof] Torrent - Kickass Torrents.

Winter's Bone (2010) (1080p x265 HEVC 10bit AAC 5 1) [Prof] Download Torrent - Extratorrent.

Winter's Bone (2010) (1080p x265 HEVC 10bit AAC 5 1) [Prof] Downlaod - torrentz.in

Download Winter's Bone (2010) (1080p x265 HEVC 10bit AAC 5 1) [Prof] Torrent - bitsnoop..

Torrent Winter's Bone (2010) (1080p x265 HEVC 10bit AAC 5 1) [Prof] Download - Nyaa.se

Winter's Bone (2010) (1080p x265 HEVC 10bit AAC 5 1) [Prof] HD Full Download Free 2017 - Welltorrent.com.



People also Search for:

  • • Download Winter's Bone (2010) (1080p x265 HEVC 10bit AAC 5 1) [Prof] Torrent 1080p
  • • Torrent Winter's Bone (2010) (1080p x265 HEVC 10bit AAC 5 1) [Prof] Download DVDRip
  • • Download Winter's Bone (2010) (1080p x265 HEVC 10bit AAC 5 1) [Prof] Torrent 720p
  • • Winter's Bone (2010) (1080p x265 HEVC 10bit AAC 5 1) [Prof] High Resolution Torrent Result
  • • Download Winter's Bone (2010) (1080p x265 HEVC 10bit AAC 5 1) [Prof] Bluray Torrent
  • • Xvid Torrent Winter's Bone (2010) (1080p x265 HEVC 10bit AAC 5 1) [Prof] Download
  • • Download Winter's Bone (2010) (1080p x265 HEVC 10bit AAC 5 1) [Prof] Torrent Full HD
  • • Torrent Winter's Bone (2010) (1080p x265 HEVC 10bit AAC 5 1) [Prof] HDRip Download
  • • Download Winter's Bone (2010) (1080p x265 HEVC 10bit AAC 5 1) [Prof] Torrent Multi Language
  • • Winter's Bone (2010) (1080p x265 HEVC 10bit AAC 5 1) [Prof] Download Multi-Subs Torrent


Tagged with:

Related Movies Torrents