Home / The Greatest Showman 2017 2160p UHD HDR BluRay (x265 10bit DD5 1)

The Greatest Showman 2017 2160p UHD HDR BluRay (x265 10bit DD5 1)

date added 1 week ago   
post views 20 views   
torrent id ID: 496555

Torrent Description: This is a New Way to Download The Movie The Greatest Showman 2017 2160p UHD HDR BluRay (x265 10bit DD5 1) Movie Torrent in HD Quality. The Greatest Showman 2017 2160p UHD HDR BluRay (x265 10bit DD5 1) DVD Print, 1080p, 720p and Bluray. If you facing any problem Downloading The Greatest Showman 2017 2160p UHD HDR BluRay (x265 10bit DD5 1) Movie Torrent. Scroll Down to Get Download Link.

  • Category : Movies
  • Type : UHD
  • Language : English
  • Total size : 4.4 GB
  • Uploaded By : UHDLorD-UHDLorD

Quote:

/!\ If you do not have a hdr monitor. Do this to reproduce right colors.

Download madVR ( www.madvr.com/ ).
Config: Unzip madVR -> copy madVR folder to C:\Program Files\ -> Run as administrator install.bat -> OK.

Download Media Player Classic - BE ( https://sourceforge.net/projects/mpcbe/ ).
Config: MPC-BE -> View -> Options -> Video -> Video Renderer -> Select madVR -> OK.

/!\ Original 4K releases with much noise, most are old movies. With much noise more bitrate is needed to maintain the quality and final file size are bigger. Releases with 60fps are bigger too.



Release info:


>Encoded by: [WMAN-LorD]
>HDR working!
>Subtitles.
>Chapters.
>Cover.
>SSIM:
>PSNR:
>Source: Blu-ray Original 4k HDR









Code:


General
Unique ID : 240845540244251626660018101239820010831 (0xB53129EE5410F06BF103E42C3D87454F)
Complete name : The.Greatest.Showman.2017.2160p.UHD.HDR.BluRay.(x265 10bit DD5.1).[WMAN-LorD].mkv
Format : Matroska
Format version : Version 4 / Version 2
File size : 4.36 GiB
Duration : 1 h 44 min
Overall bit rate : 5 956 kb/s
Movie name : The Greatest Showman (2017)
Encoded date : UTC 2018-04-17 21:18:49
Writing application : mkvmerge v20.0.0 ('I Am The Sun') 64-bit
Writing library : libebml v1.3.5 + libmatroska v1.4.8
Cover : Yes
Attachments : cover.jpg

Video
ID : 1
Format : HEVC
Format/Info : High Efficiency Video Coding
Format profile : Main [email protected]@Main
Codec ID : V_MPEGH/ISO/HEVC
Duration : 1 h 44 min
Bit rate : 5 019 kb/s
Width : 3 840 pixels
Height : 2 160 pixels
Display aspect ratio : 16:9
Frame rate mode : Constant
Frame rate : 23.976 (24000/1001) FPS
Color space : YUV
Chroma subsampling : 4:2:0
Bit depth : 10 bits
Bits/(Pixel*Frame) : 0.025
Stream size : 3.67 GiB (84%)
Title : [WMAN-LorD]
Language : English
Default : Yes
Forced : No
Color range : Limited
Color primaries : BT.2020
Transfer characteristics : PQ
Matrix coefficients : BT.2020 non-constant

Audio
ID : 2
Format : AC-3
Format/Info : Audio Coding 3
Format settings, Endianness : Big
Codec ID : A_AC3
Duration : 1 h 44 min
Bit rate mode : Constant
Bit rate : 640 kb/s
Channel(s) : 6 channels
Channel positions : Front: L C R, Side: L R, LFE
Sampling rate : 48.0 kHz
Frame rate : 31.250 FPS (1536 SPF)
Bit depth : 16 bits
Compression mode : Lossy
Stream size : 480 MiB (11%)
Title : Compatibility Track / Dolby Digital Audio / 5.1 / 48 kHz / 640 kbps
Language : English
Service kind : Complete Main
Default : No
Forced : No

Text #1
ID : 3
Format : UTF-8
Codec ID : S_TEXT/UTF8
Codec ID/Info : UTF-8 Plain Text
Duration : 1 h 36 min
Bit rate : 65 b/s
Count of elements : 1298
Stream size : 46.4 KiB (0%)
Title : Portuguese Brazil
Language : Portuguese
Default : Yes
Forced : No

Text #2
ID : 4
Format : PGS
Muxing mode : zlib
Codec ID : S_HDMV/PGS
Codec ID/Info : Picture based subtitle format used on BDs/HD-DVDs
Duration : 1 h 43 min
Bit rate : 51.5 kb/s
Count of elements : 3728
Stream size : 38.1 MiB (1%)
Title : SDH
Language : English
Default : No
Forced : No

Text #3
ID : 5
Format : PGS
Muxing mode : zlib
Codec ID : S_HDMV/PGS
Codec ID/Info : Picture based subtitle format used on BDs/HD-DVDs
Duration : 1 h 43 min
Bit rate : 30.5 kb/s
Count of elements : 3018
Stream size : 22.6 MiB (1%)
Title : Cantonese
Language : Chinese
Default : No
Forced : No

Text #4
ID : 6
Format : PGS
Muxing mode : zlib
Codec ID : S_HDMV/PGS
Codec ID/Info : Picture based subtitle format used on BDs/HD-DVDs
Duration : 1 h 43 min
Bit rate : 29.2 kb/s
Count of elements : 2994
Stream size : 21.7 MiB (0%)
Title : Traditional
Language : Chinese
Default : No
Forced : No

Text #5
ID : 7
Format : PGS
Muxing mode : zlib
Codec ID : S_HDMV/PGS
Codec ID/Info : Picture based subtitle format used on BDs/HD-DVDs
Duration : 1 h 44 min
Bit rate : 39.4 kb/s
Count of elements : 3032
Stream size : 29.5 MiB (1%)
Language : Czech
Default : No
Forced : No

Text #6
ID : 8
Format : PGS
Muxing mode : zlib
Codec ID : S_HDMV/PGS
Codec ID/Info : Picture based subtitle format used on BDs/HD-DVDs
Duration : 1 h 43 min
Bit rate : 33.8 kb/s
Count of elements : 2254
Stream size : 25.1 MiB (1%)
Language : Danish
Default : No
Forced : No

Text #7
ID : 9
Format : PGS
Muxing mode : zlib
Codec ID : S_HDMV/PGS
Codec ID/Info : Picture based subtitle format used on BDs/HD-DVDs
Duration : 1 h 43 min
Bit rate : 36.0 kb/s
Count of elements : 2556
Stream size : 26.7 MiB (1%)
Language : Dutch
Default : No
Forced : No

Text #8
ID : 10
Format : PGS
Muxing mode : zlib
Codec ID : S_HDMV/PGS
Codec ID/Info : Picture based subtitle format used on BDs/HD-DVDs
Duration : 1 h 43 min
Bit rate : 36.4 kb/s
Count of elements : 2964
Stream size : 27.0 MiB (1%)
Language : Finnish
Default : No
Forced : No

Text #9
ID : 11
Format : PGS
Muxing mode : zlib
Codec ID : S_HDMV/PGS
Codec ID/Info : Picture based subtitle format used on BDs/HD-DVDs
Duration : 1 h 44 min
Bit rate : 41.9 kb/s
Count of elements : 3367
Stream size : 31.3 MiB (1%)
Title : Canadian (SDH)
Language : French
Default : No
Forced : No

Text #10
ID : 12
Format : PGS
Muxing mode : zlib
Codec ID : S_HDMV/PGS
Codec ID/Info : Picture based subtitle format used on BDs/HD-DVDs
Duration : 1 h 43 min
Bit rate : 33.0 kb/s
Count of elements : 2706
Stream size : 24.5 MiB (1%)
Title : Parisian
Language : French
Default : No
Forced : No

Text #11
ID : 13
Format : PGS
Muxing mode : zlib
Codec ID : S_HDMV/PGS
Codec ID/Info : Picture based subtitle format used on BDs/HD-DVDs
Duration : 1 h 43 min
Bit rate : 41.2 kb/s
Count of elements : 2602
Stream size : 30.6 MiB (1%)
Language : German
Default : No
Forced : No

Text #12
ID : 14
Format : PGS
Muxing mode : zlib
Codec ID : S_HDMV/PGS
Codec ID/Info : Picture based subtitle format used on BDs/HD-DVDs
Duration : 1 h 43 min
Bit rate : 41.0 kb/s
Count of elements : 2948
Stream size : 30.4 MiB (1%)
Language : Italian
Default : No
Forced : No

Text #13
ID : 15
Format : PGS
Muxing mode : zlib
Codec ID : S_HDMV/PGS
Codec ID/Info : Picture based subtitle format used on BDs/HD-DVDs
Duration : 1 h 43 min
Bit rate : 22.6 kb/s
Count of elements : 2670
Stream size : 16.8 MiB (0%)
Language : Japanese
Default : No
Forced : No

Text #14
ID : 16
Format : PGS
Muxing mode : zlib
Codec ID : S_HDMV/PGS
Codec ID/Info : Picture based subtitle format used on BDs/HD-DVDs
Duration : 1 h 43 min
Bit rate : 39.3 kb/s
Count of elements : 2978
Stream size : 29.2 MiB (1%)
Language : Norwegian
Default : No
Forced : No

Text #15
ID : 17
Format : PGS
Muxing mode : zlib
Codec ID : S_HDMV/PGS
Codec ID/Info : Picture based subtitle format used on BDs/HD-DVDs
Duration : 1 h 43 min
Bit rate : 34.3 kb/s
Count of elements : 2852
Stream size : 25.5 MiB (1%)
Language : Polish
Default : No
Forced : No

Text #16
ID : 18
Format : PGS
Muxing mode : zlib
Codec ID : S_HDMV/PGS
Codec ID/Info : Picture based subtitle format used on BDs/HD-DVDs
Duration : 1 h 43 min
Bit rate : 38.0 kb/s
Count of elements : 2984
Stream size : 28.2 MiB (1%)
Title : Castilian
Language : Spanish
Default : No
Forced : No

Text #17
ID : 19
Format : PGS
Muxing mode : zlib
Codec ID : S_HDMV/PGS
Codec ID/Info : Picture based subtitle format used on BDs/HD-DVDs
Duration : 1 h 43 min
Bit rate : 38.9 kb/s
Count of elements : 2932
Stream size : 28.9 MiB (1%)
Title : Latin American
Language : Spanish
Default : No
Forced : No

Text #18
ID : 20
Format : PGS
Muxing mode : zlib
Codec ID : S_HDMV/PGS
Codec ID/Info : Picture based subtitle format used on BDs/HD-DVDs
Duration : 1 h 43 min
Bit rate : 39.7 kb/s
Count of elements : 2966
Stream size : 29.5 MiB (1%)
Language : Swedish
Default : No
Forced : No

Menu
00:00:00.000 : en:Chapter 1
00:03:21.618 : en:Chapter 2
00:11:33.985 : en:Chapter 3
00:16:21.314 : en:Chapter 4
00:21:13.731 : en:Chapter 5
00:25:04.169 : en:Chapter 6
00:32:10.178 : en:Chapter 7
00:36:09.626 : en:Chapter 8
00:41:38.413 : en:Chapter 9
00:44:41.053 : en:Chapter 10
00:48:24.151 : en:Chapter 11
00:53:11.146 : en:Chapter 12
00:56:20.711 : en:Chapter 13
01:01:34.816 : en:Chapter 14
01:07:33.883 : en:Chapter 15
01:12:00.983 : en:Chapter 16
01:18:23.699 : en:Chapter 17
01:22:07.131 : en:Chapter 18
01:29:04.798 : en:Chapter 19
01:37:09.449 : en:Chapter 20








DOWNLOAD LINK

The Greatest Showman 2017 2160p UHD HDR BluRay (x265 10bit DD5 1) The Greatest Showman 2017 2160p UHD HDR BluRay (x265 10bit DD5 1)


Latest Top Searches of peoples:

Download The Greatest Showman 2017 2160p UHD HDR BluRay (x265 10bit DD5 1) Full Movie Torrent HD Quality.

Torrent The Greatest Showman 2017 2160p UHD HDR BluRay (x265 10bit DD5 1) Download

Download Free The Greatest Showman 2017 2160p UHD HDR BluRay (x265 10bit DD5 1) Torrent

Download The Greatest Showman 2017 2160p UHD HDR BluRay (x265 10bit DD5 1) Torrent - Kickass Torrents.

The Greatest Showman 2017 2160p UHD HDR BluRay (x265 10bit DD5 1) Download Torrent - Extratorrent.

The Greatest Showman 2017 2160p UHD HDR BluRay (x265 10bit DD5 1) Downlaod - torrentz.in

Download The Greatest Showman 2017 2160p UHD HDR BluRay (x265 10bit DD5 1) Torrent - bitsnoop..

Torrent The Greatest Showman 2017 2160p UHD HDR BluRay (x265 10bit DD5 1) Download - Nyaa.se

The Greatest Showman 2017 2160p UHD HDR BluRay (x265 10bit DD5 1) HD Full Download Free 2017 - Welltorrent.com.



People also Search for:

  • • Download The Greatest Showman 2017 2160p UHD HDR BluRay (x265 10bit DD5 1) Torrent 1080p
  • • Torrent The Greatest Showman 2017 2160p UHD HDR BluRay (x265 10bit DD5 1) Download DVDRip
  • • Download The Greatest Showman 2017 2160p UHD HDR BluRay (x265 10bit DD5 1) Torrent 720p
  • • The Greatest Showman 2017 2160p UHD HDR BluRay (x265 10bit DD5 1) High Resolution Torrent Result
  • • Download The Greatest Showman 2017 2160p UHD HDR BluRay (x265 10bit DD5 1) Bluray Torrent
  • • Xvid Torrent The Greatest Showman 2017 2160p UHD HDR BluRay (x265 10bit DD5 1) Download
  • • Download The Greatest Showman 2017 2160p UHD HDR BluRay (x265 10bit DD5 1) Torrent Full HD
  • • Torrent The Greatest Showman 2017 2160p UHD HDR BluRay (x265 10bit DD5 1) HDRip Download
  • • Download The Greatest Showman 2017 2160p UHD HDR BluRay (x265 10bit DD5 1) Torrent Multi Language
  • • The Greatest Showman 2017 2160p UHD HDR BluRay (x265 10bit DD5 1) Download Multi-Subs Torrent


Tagged with:

Related Movies Torrents