Home / The Cured 2017 Movies 720p HDRip x264 5 1 with Sample ☻rDX☻

The Cured 2017 Movies 720p HDRip x264 5 1 with Sample ☻rDX☻

date added 1 week ago   
post views 28 views   
torrent id ID: 496498

Torrent Description: This is a New Way to Download The Movie The Cured 2017 Movies 720p HDRip x264 5 1 with Sample ☻rDX☻ Movie Torrent in HD Quality. The Cured 2017 Movies 720p HDRip x264 5 1 with Sample ☻rDX☻ DVD Print, 1080p, 720p and Bluray. If you facing any problem Downloading The Cured 2017 Movies 720p HDRip x264 5 1 with Sample ☻rDX☻ Movie Torrent. Scroll Down to Get Download Link.

  • Category : Movies
  • Type : HD
  • Language : English
  • Total size : 894.9 MB
  • Uploaded By : nehalpuja-nehalpuja

The Cured 2017 Movies 720p HDRip x264 5.1 with Sample ☻rDX☻
===============================================================================================

SCREEN SHOTS:



or

http://iphonehosting.eu/2018/5/flight/1.html

File size : 886 MiB
Duration : 1 h 34 min
Overall bit rate : 1 305 kb/s
Movie name : The Cured 2017 Movies 720p HDRip x264 5.1 ☻rDX☻

Video
ID : 2
Format : AVC
Format/Info : Advanced Video Codec
Format profile : [email protected]
Format settings, CABAC : Yes
Format settings, ReFrames : 4 frames
Codec ID : V_MPEG4/ISO/AVC
Duration : 1 h 34 min
Bit rate : 920 kb/s
Width : 1 280 pixels
Height : 528 pixels
Display aspect ratio : 2.40:1
Original display aspect ratio : 2.40:1
Frame rate mode : Constant
Frame rate : 24.000 FPS
Color space : YUV
Chroma subsampling : 4:2:0
Bit depth : 8 bits
Scan type : Progressive
Bits/(Pixel*Frame) : 0.057
Stream size : 607 MiB (69%)
Title : ☻rDX☻
Writing library : x264

Audio
ID : 1
Format : AC-3
Format/Info : Audio Coding 3
Mode extension : CM (complete main)
Format settings, Endianness : Big
Codec ID : A_AC3
Duration : 1 h 34 min
Bit rate mode : Constant
Bit rate : 384 kb/s
Channel(s) : 6 channels
Channel positions : Front: L C R, Side: L R, LFE
Sampling rate : 48.0 kHz
Frame rate : 31.250 FPS (1536 spf)
Bit depth : 16 bits
Compression mode : Lossy
Delay relative to video : -21 ms
Stream size : 261 MiB (29%)
Title : ☻rDX☻
Language : English
Default : No
Forced : No



IMDB : https://www.imdb.com/title/tt3463106

DOWNLOAD LINK

The Cured 2017 Movies 720p HDRip x264 5 1 with Sample ☻rDX☻ The Cured 2017 Movies 720p HDRip x264 5 1 with Sample ☻rDX☻


Latest Top Searches of peoples:

Download The Cured 2017 Movies 720p HDRip x264 5 1 with Sample ☻rDX☻ Full Movie Torrent HD Quality.

Torrent The Cured 2017 Movies 720p HDRip x264 5 1 with Sample ☻rDX☻ Download

Download Free The Cured 2017 Movies 720p HDRip x264 5 1 with Sample ☻rDX☻ Torrent

Download The Cured 2017 Movies 720p HDRip x264 5 1 with Sample ☻rDX☻ Torrent - Kickass Torrents.

The Cured 2017 Movies 720p HDRip x264 5 1 with Sample ☻rDX☻ Download Torrent - Extratorrent.

The Cured 2017 Movies 720p HDRip x264 5 1 with Sample ☻rDX☻ Downlaod - torrentz.in

Download The Cured 2017 Movies 720p HDRip x264 5 1 with Sample ☻rDX☻ Torrent - bitsnoop..

Torrent The Cured 2017 Movies 720p HDRip x264 5 1 with Sample ☻rDX☻ Download - Nyaa.se

The Cured 2017 Movies 720p HDRip x264 5 1 with Sample ☻rDX☻ HD Full Download Free 2017 - Welltorrent.com.



People also Search for:

  • • Download The Cured 2017 Movies 720p HDRip x264 5 1 with Sample ☻rDX☻ Torrent 1080p
  • • Torrent The Cured 2017 Movies 720p HDRip x264 5 1 with Sample ☻rDX☻ Download DVDRip
  • • Download The Cured 2017 Movies 720p HDRip x264 5 1 with Sample ☻rDX☻ Torrent 720p
  • • The Cured 2017 Movies 720p HDRip x264 5 1 with Sample ☻rDX☻ High Resolution Torrent Result
  • • Download The Cured 2017 Movies 720p HDRip x264 5 1 with Sample ☻rDX☻ Bluray Torrent
  • • Xvid Torrent The Cured 2017 Movies 720p HDRip x264 5 1 with Sample ☻rDX☻ Download
  • • Download The Cured 2017 Movies 720p HDRip x264 5 1 with Sample ☻rDX☻ Torrent Full HD
  • • Torrent The Cured 2017 Movies 720p HDRip x264 5 1 with Sample ☻rDX☻ HDRip Download
  • • Download The Cured 2017 Movies 720p HDRip x264 5 1 with Sample ☻rDX☻ Torrent Multi Language
  • • The Cured 2017 Movies 720p HDRip x264 5 1 with Sample ☻rDX☻ Download Multi-Subs Torrent


Tagged with:

Related Movies Torrents