Home / Revenge (2017) English 720p WEB-DL x264 AAC ESubs~Saransh

Revenge (2017) English 720p WEB-DL x264 AAC ESubs~Saransh

date added 1 week ago   
post views 36 views   
torrent id ID: 496477

Torrent Description: This is a New Way to Download The Movie Revenge (2017) English 720p WEB-DL x264 AAC ESubs~Saransh Movie Torrent in HD Quality. Revenge (2017) English 720p WEB-DL x264 AAC ESubs~Saransh DVD Print, 1080p, 720p and Bluray. If you facing any problem Downloading Revenge (2017) English 720p WEB-DL x264 AAC ESubs~Saransh Movie Torrent. Scroll Down to Get Download Link.

  • Category : Movies
  • Type : HD
  • Language : English
  • Total size : 852.2 MB
  • Uploaded By : Saransh-Saransh

Revenge (2017) English 720p WEB-DL x264 AAC ~Saransh



General
Format                                   : Matroska
Format version                           : Version 4 / Version 2
File size                                : 852 MiB
Duration                                 : 1 h 48 min
Overall bit rate                         : 1 098 kb/s
Encoded date                             : UTC 2018-05-14 17:06:30
Writing application                      : mkvmerge v23.0.0 ('The Bride Said No') 64-bit
Writing library                          : libebml v1.3.6 + libmatroska v1.4.9

Video
ID                                       : 2
Format                                   : AVC
Format/Info                              : Advanced Video Codec
Format profile                           : [email protected]
Format settings                          : CABAC / 8 Ref Frames
Format settings, CABAC                   : Yes
Format settings, RefFrames               : 8 frames
Codec ID                                 : V_MPEG4/ISO/AVC
Duration                                 : 1 h 48 min
Bit rate                                 : 1 033 kb/s
Width                                    : 1 280 pixels
Height                                   : 540 pixels
Display aspect ratio                     : 2.40:1
Original display aspect ratio            : 2.40:1
Frame rate mode                          : Constant
Frame rate                               : 23.976 (24000/1001) FPS
Color space                              : YUV
Chroma subsampling                       : 4:2:0
Bit depth                                : 8 bits
Scan type                                : Progressive
Bits/(Pixel*Frame)                       : 0.062
Stream size                              : 801 MiB (94%)
Title                                    : ~Saransh
Writing library                          : x264 core 148 r2708 86b7198
Encoding settings                        : cabac=1 / ref=8 / deblock=1:0:0 / analyse=0x3:0x133 / me=umh / subme=9 / psy=1 / psy_rd=1.00:0.00 / mixed_ref=1 / me_range=16 / chroma_me=1 / trellis=2 / 8x8dct=1 / cqm=0 / deadzone=21,11 / fast_pskip=1 / chroma_qp_offset=-2 / threads=17 / lookahead_threads=1 / sliced_threads=0 / nr=0 / decimate=1 / interlaced=0 / bluray_compat=0 / constrained_intra=0 / bframes=3 / b_pyramid=2 / b_adapt=2 / b_bias=0 / direct=3 / weightb=1 / open_gop=0 / weightp=2 / keyint=240 / keyint_min=24 / scenecut=40 / intra_refresh=0 / rc_lookahead=60 / rc=2pass / mbtree=1 / bitrate=1033 / ratetol=1.0 / qcomp=0.60 / qpmin=0 / qpmax=69 / qpstep=4 / cplxblur=20.0 / qblur=0.5 / vbv_maxrate=62500 / vbv_bufsize=78125 / nal_hrd=none / filler=0 / ip_ratio=1.40 / aq=1:1.00
Language                                 : English
Default                                  : Yes
Forced                                   : No
Color range                              : Limited
Color primaries                          : BT.709
Transfer characteristics                 : BT.709
Matrix coefficients                      : BT.709

Audio
ID                                       : 1
Format                                   : AAC
Format/Info                              : Advanced Audio Codec
Format profile                           : HE-AAC / LC
Format settings                          : Explicit
Codec ID                                 : A_AAC-2
Duration                                 : 1 h 48 min
Bit rate                                 : 64.0 kb/s
Channel(s)                               : 2 channels
Channel positions                        : Front: L R
Sampling rate                            : 48.0 kHz / 24.0 kHz
Frame rate                               : 23.438 FPS (1024 SPF)
Compression mode                         : Lossy
Delay relative to video                  : 31 ms
Stream size                              : 49.7 MiB (6%)
Title                                    : ~Saransh
Language                                 : English
Default                                  : Yes
Forced                                   : No

Text
ID                                       : 3
Format                                   : UTF-8
Codec ID                                 : S_TEXT/UTF8
Codec ID/Info                            : UTF-8 Plain Text
Duration                                 : 1 h 44 min
Bit rate                                 : 8 b/s
Count of elements                        : 212
Stream size                              : 6.69 KiB (0%)
Title                                    : ~Saransh
Language                                 : English
Default                                  : Yes
Forced                                   : No

Menu
00:00:00.000                             : :Chapter 1
00:09:51.674                             : :Chapter 2
00:14:02.925                             : :Chapter 3
00:23:57.144                             : :Chapter 4
00:37:53.396                             : :Chapter 5
00:58:20.497                             : :Chapter 6
01:25:53.899                             : :Chapter 7
01:45:10.846                             : :Chapter 8


DOWNLOAD LINK

Revenge (2017) English 720p WEB-DL x264 AAC ESubs~Saransh Revenge (2017) English 720p WEB-DL x264 AAC ESubs~Saransh


Latest Top Searches of peoples:

Download Revenge (2017) English 720p WEB-DL x264 AAC ESubs~Saransh Full Movie Torrent HD Quality.

Torrent Revenge (2017) English 720p WEB-DL x264 AAC ESubs~Saransh Download

Download Free Revenge (2017) English 720p WEB-DL x264 AAC ESubs~Saransh Torrent

Download Revenge (2017) English 720p WEB-DL x264 AAC ESubs~Saransh Torrent - Kickass Torrents.

Revenge (2017) English 720p WEB-DL x264 AAC ESubs~Saransh Download Torrent - Extratorrent.

Revenge (2017) English 720p WEB-DL x264 AAC ESubs~Saransh Downlaod - torrentz.in

Download Revenge (2017) English 720p WEB-DL x264 AAC ESubs~Saransh Torrent - bitsnoop..

Torrent Revenge (2017) English 720p WEB-DL x264 AAC ESubs~Saransh Download - Nyaa.se

Revenge (2017) English 720p WEB-DL x264 AAC ESubs~Saransh HD Full Download Free 2017 - Welltorrent.com.



People also Search for:

  • • Download Revenge (2017) English 720p WEB-DL x264 AAC ESubs~Saransh Torrent 1080p
  • • Torrent Revenge (2017) English 720p WEB-DL x264 AAC ESubs~Saransh Download DVDRip
  • • Download Revenge (2017) English 720p WEB-DL x264 AAC ESubs~Saransh Torrent 720p
  • • Revenge (2017) English 720p WEB-DL x264 AAC ESubs~Saransh High Resolution Torrent Result
  • • Download Revenge (2017) English 720p WEB-DL x264 AAC ESubs~Saransh Bluray Torrent
  • • Xvid Torrent Revenge (2017) English 720p WEB-DL x264 AAC ESubs~Saransh Download
  • • Download Revenge (2017) English 720p WEB-DL x264 AAC ESubs~Saransh Torrent Full HD
  • • Torrent Revenge (2017) English 720p WEB-DL x264 AAC ESubs~Saransh HDRip Download
  • • Download Revenge (2017) English 720p WEB-DL x264 AAC ESubs~Saransh Torrent Multi Language
  • • Revenge (2017) English 720p WEB-DL x264 AAC ESubs~Saransh Download Multi-Subs Torrent


Tagged with:

Related Movies Torrents