Home / Red Sparrow (2018) 720p BluRay x264 [Dual-Audio][English DD 5 1+H

Red Sparrow (2018) 720p BluRay x264 [Dual-Audio][English DD 5 1+H

date added 1 week ago   
post views 21 views   
torrent id ID: 496525

Torrent Description: This is a New Way to Download The Movie Red Sparrow (2018) 720p BluRay x264 [Dual-Audio][English DD 5 1+H Movie Torrent in HD Quality. Red Sparrow (2018) 720p BluRay x264 [Dual-Audio][English DD 5 1+H DVD Print, 1080p, 720p and Bluray. If you facing any problem Downloading Red Sparrow (2018) 720p BluRay x264 [Dual-Audio][English DD 5 1+H Movie Torrent. Scroll Down to Get Download Link.

  • Category : Movies
  • Type : Dubs/Dual Audio
  • Language : Hindi
  • Total size : 1.4 GB
  • Uploaded By : Mafiaking-Mafiaking












Ratings: 6.7/10

Genere:       Drama, Mystery, Thriller

General
Complete name : Red Sparrow (2018) 720p BluRay x264 [Dual-Audio][English DD 5.1+Hindi DD 5.1] - Mafiaking - M2Tv.mkv
Format : Matroska
File size : 1.37 GiB
Duration : 2 h 20 min
Overall bit rate : 1 399 kb/s

Video
ID : 1
Format : AVC
Codec ID : V_MPEG4/ISO/AVC
Duration : 2 h 20 min
Bit rate : 950 kb/s
Width : 1 280 pixels
Height : 536 pixels
Stream size : 952 MiB (68%)
Title : Mafiaking
Language : English
Default : Yes

Audio #1
ID : 2
Format : AC-3
Duration : 2 h 20 min
Bit rate : 224 kb/s
Channel(s) : 6 channels
Stream size : 225 MiB (16%)
Title : Mafiaking
Language : Hindi
Service kind : Complete Main
Default : Yes

Audio #2
ID : 3
Format : AC-3
Duration : 2 h 20 min
Bit rate : 224 kb/s
Channel(s) : 6 channels
Stream size : 225 MiB (16%)
Title : Mafiaking
Language : English
Service kind : Complete Main
Default : No

SAMPLE WITH IN TORRENT

[/quote]

**To View Image In Full Size Click on Thumbnails**

DOWNLOAD LINK

Red Sparrow (2018) 720p BluRay x264 [Dual-Audio][English DD 5 1+H Red Sparrow (2018) 720p BluRay x264 [Dual-Audio][English DD 5 1+H


Latest Top Searches of peoples:

Download Red Sparrow (2018) 720p BluRay x264 [Dual-Audio][English DD 5 1+H Full Movie Torrent HD Quality.

Torrent Red Sparrow (2018) 720p BluRay x264 [Dual-Audio][English DD 5 1+H Download

Download Free Red Sparrow (2018) 720p BluRay x264 [Dual-Audio][English DD 5 1+H Torrent

Download Red Sparrow (2018) 720p BluRay x264 [Dual-Audio][English DD 5 1+H Torrent - Kickass Torrents.

Red Sparrow (2018) 720p BluRay x264 [Dual-Audio][English DD 5 1+H Download Torrent - Extratorrent.

Red Sparrow (2018) 720p BluRay x264 [Dual-Audio][English DD 5 1+H Downlaod - torrentz.in

Download Red Sparrow (2018) 720p BluRay x264 [Dual-Audio][English DD 5 1+H Torrent - bitsnoop..

Torrent Red Sparrow (2018) 720p BluRay x264 [Dual-Audio][English DD 5 1+H Download - Nyaa.se

Red Sparrow (2018) 720p BluRay x264 [Dual-Audio][English DD 5 1+H HD Full Download Free 2017 - Welltorrent.com.



People also Search for:

  • • Download Red Sparrow (2018) 720p BluRay x264 [Dual-Audio][English DD 5 1+H Torrent 1080p
  • • Torrent Red Sparrow (2018) 720p BluRay x264 [Dual-Audio][English DD 5 1+H Download DVDRip
  • • Download Red Sparrow (2018) 720p BluRay x264 [Dual-Audio][English DD 5 1+H Torrent 720p
  • • Red Sparrow (2018) 720p BluRay x264 [Dual-Audio][English DD 5 1+H High Resolution Torrent Result
  • • Download Red Sparrow (2018) 720p BluRay x264 [Dual-Audio][English DD 5 1+H Bluray Torrent
  • • Xvid Torrent Red Sparrow (2018) 720p BluRay x264 [Dual-Audio][English DD 5 1+H Download
  • • Download Red Sparrow (2018) 720p BluRay x264 [Dual-Audio][English DD 5 1+H Torrent Full HD
  • • Torrent Red Sparrow (2018) 720p BluRay x264 [Dual-Audio][English DD 5 1+H HDRip Download
  • • Download Red Sparrow (2018) 720p BluRay x264 [Dual-Audio][English DD 5 1+H Torrent Multi Language
  • • Red Sparrow (2018) 720p BluRay x264 [Dual-Audio][English DD 5 1+H Download Multi-Subs Torrent


Tagged with:

Related Movies Torrents