Home / Moonnam Niyamam (2018) Malayalam - HDRip - x264 -700MB - AAC - Mo

Moonnam Niyamam (2018) Malayalam - HDRip - x264 -700MB - AAC - Mo

date added 1 week ago   
post views 29 views   
torrent id ID: 496577

Torrent Description: This is a New Way to Download The Movie Moonnam Niyamam (2018) Malayalam - HDRip - x264 -700MB - AAC - Mo Movie Torrent in HD Quality. Moonnam Niyamam (2018) Malayalam - HDRip - x264 -700MB - AAC - Mo DVD Print, 1080p, 720p and Bluray. If you facing any problem Downloading Moonnam Niyamam (2018) Malayalam - HDRip - x264 -700MB - AAC - Mo Movie Torrent. Scroll Down to Get Download Link.

  • Category : Movies
  • Type : DVD
  • Language : Malayalam
  • Total size : 701.7 MB
  • Uploaded By : MovCr-MovCr

https://movcr.com

Moonnam Niyamam (2018) Malayalam - HDRip - x264 -700MB - AAC - MovCr



Video
ID : 1
Format : AVC
Format/Info : Advanced Video Codec
Format profile : [email protected]
Format settings, CABAC : Yes
Format settings, ReFrames : 4 frames
Codec ID : V_MPEG4/ISO/AVC
Duration : 1 h 45 min
Bit rate : 814 kb/s
Width : 720 pixels
Height : 304 pixels
Display aspect ratio : 2.35:1
Frame rate mode : Constant
Frame rate : 25.000 FPS
Color space : YUV
Chroma subsampling : 4:2:0
Bit depth : 8 bits
Scan type : Progressive
Bits/(Pixel*Frame) : 0.149
Stream size : 606 MiB (86%)
Title : www.MovCr.com
Writing library : x264 core 112
Encoding settings : cabac=1 / ref=2 / deblock=1:0:0 / analyse=0x1:0x111 / me=hex / subme=6 / psy=1 / psy_rd=1.00:0.00 / mixed_ref=0 / me_range=16 / chroma_me=1 / trellis=0 / 8x8dct=0 / cqm=0 / deadzone=21,11 / fast_pskip=1 / chroma_qp_offset=-2 / threads=12 / sliced_threads=0 / nr=0 / decimate=1 / interlaced=0 / constrained_intra=0 / bframes=2 / b_pyramid=2 / b_adapt=1 / b_bias=0 / direct=1 / weightb=0 / open_gop=0 / weightp=2 / keyint=250 / keyint_min=25 / scenecut=40 / intra_refresh=0 / rc_lookahead=40 / rc=abr / mbtree=1 / bitrate=814 / ratetol=1.0 / qcomp=0.60 / qpmin=3 / qpmax=51 / qpstep=4 / ip_ratio=1.40 / aq=1:1.00
Language : Malayalam
Default : Yes
Forced : No
Color range : Limited
Color primaries : BT.601 NTSC
Transfer characteristics : BT.709
Matrix coefficients : BT.601

Audio
ID : 2
Format : AAC
Format/Info : Advanced Audio Codec
Format profile : LC
Codec ID : A_AAC
Duration : 1 h 45 min
Bit rate : 126 kb/s
Channel(s) : 2 channels
Channel positions : Front: L R
Sampling rate : 44.1 kHz
Frame rate : 43.066 FPS (1024 spf)
Compression mode : Lossy
Stream size : 94.5 MiB (13%)
Title : www.MovCr.com
Language : Malayalam
Default : Yes
Forced : No


DOWNLOAD LINK

Moonnam Niyamam (2018) Malayalam - HDRip - x264 -700MB - AAC - Mo Moonnam Niyamam (2018) Malayalam - HDRip - x264 -700MB - AAC - Mo


Latest Top Searches of peoples:

Download Moonnam Niyamam (2018) Malayalam - HDRip - x264 -700MB - AAC - Mo Full Movie Torrent HD Quality.

Torrent Moonnam Niyamam (2018) Malayalam - HDRip - x264 -700MB - AAC - Mo Download

Download Free Moonnam Niyamam (2018) Malayalam - HDRip - x264 -700MB - AAC - Mo Torrent

Download Moonnam Niyamam (2018) Malayalam - HDRip - x264 -700MB - AAC - Mo Torrent - Kickass Torrents.

Moonnam Niyamam (2018) Malayalam - HDRip - x264 -700MB - AAC - Mo Download Torrent - Extratorrent.

Moonnam Niyamam (2018) Malayalam - HDRip - x264 -700MB - AAC - Mo Downlaod - torrentz.in

Download Moonnam Niyamam (2018) Malayalam - HDRip - x264 -700MB - AAC - Mo Torrent - bitsnoop..

Torrent Moonnam Niyamam (2018) Malayalam - HDRip - x264 -700MB - AAC - Mo Download - Nyaa.se

Moonnam Niyamam (2018) Malayalam - HDRip - x264 -700MB - AAC - Mo HD Full Download Free 2017 - Welltorrent.com.



People also Search for:

  • • Download Moonnam Niyamam (2018) Malayalam - HDRip - x264 -700MB - AAC - Mo Torrent 1080p
  • • Torrent Moonnam Niyamam (2018) Malayalam - HDRip - x264 -700MB - AAC - Mo Download DVDRip
  • • Download Moonnam Niyamam (2018) Malayalam - HDRip - x264 -700MB - AAC - Mo Torrent 720p
  • • Moonnam Niyamam (2018) Malayalam - HDRip - x264 -700MB - AAC - Mo High Resolution Torrent Result
  • • Download Moonnam Niyamam (2018) Malayalam - HDRip - x264 -700MB - AAC - Mo Bluray Torrent
  • • Xvid Torrent Moonnam Niyamam (2018) Malayalam - HDRip - x264 -700MB - AAC - Mo Download
  • • Download Moonnam Niyamam (2018) Malayalam - HDRip - x264 -700MB - AAC - Mo Torrent Full HD
  • • Torrent Moonnam Niyamam (2018) Malayalam - HDRip - x264 -700MB - AAC - Mo HDRip Download
  • • Download Moonnam Niyamam (2018) Malayalam - HDRip - x264 -700MB - AAC - Mo Torrent Multi Language
  • • Moonnam Niyamam (2018) Malayalam - HDRip - x264 -700MB - AAC - Mo Download Multi-Subs Torrent


Tagged with:

Related Movies Torrents