Home / Maze Runner The Death Cure (2018) x 1604 (2160p) HDR 5 1 x265 10b

Maze Runner The Death Cure (2018) x 1604 (2160p) HDR 5 1 x265 10b

date added 1 week ago   
post views 18 views   
torrent id ID: 496545

Torrent Description: This is a New Way to Download The Movie Maze Runner The Death Cure (2018) x 1604 (2160p) HDR 5 1 x265 10b Movie Torrent in HD Quality. Maze Runner The Death Cure (2018) x 1604 (2160p) HDR 5 1 x265 10b DVD Print, 1080p, 720p and Bluray. If you facing any problem Downloading Maze Runner The Death Cure (2018) x 1604 (2160p) HDR 5 1 x265 10b Movie Torrent. Scroll Down to Get Download Link.

  • Category : Movies
  • Type : UHD
  • Language : English
  • Total size : 5.4 GB
  • Uploaded By : PhunPsyz-PhunPsyz

www.imdb.com/title/tt4500922/

Young hero Thomas embarks on a mission to find a cure for a deadly disease known as "The Flare".

Source: IAMABLE (HDR) (27.3 GiB)



Format : Matroska
Format version : Version 4 / Version 2
File size : 5.43 GiB
Duration : 2 h 23 min
Overall bit rate : 5 401 kb/s

Video
ID : 1
Format : HEVC
Format/Info : High Efficiency Video Coding
Format profile : Main [email protected]@High
Codec ID : V_MPEGH/ISO/HEVC
Duration : 2 h 23 min
Bit rate : 4 973 kb/s
Width : 3 840 pixels
Height : 1 604 pixels
Display aspect ratio : 2.40:1
Frame rate mode : Constant
Frame rate : 23.976 (24000/1001) FPS
Color space : YUV
Chroma subsampling : 4:2:0
Bit depth : 10 bits
Bits/(Pixel*Frame) : 0.034
Stream size : 5.00 GiB (92%)
Writing library : x265 2.6:[Windows][GCC 7.1.0][64 bit] 10bit

Audio
ID : 2
Format : AC-3
Format/Info : Audio Coding 3
Format settings, Endianness : Big
Codec ID : A_AC3
Duration : 2 h 23 min
Bit rate mode : Constant
Bit rate : 320 kb/s
Channel(s) : 6 channels
Channel positions : Front: L C R, Side: L R, LFE
Sampling rate : 48.0 kHz
Frame rate : 31.250 FPS (1536 SPF)
Bit depth : 16 bits
Compression mode : Lossy
Stream size : 329 MiB (6%)
Title : Surround
Language : English

Text
Language : English
Language : English
Language : English
Language : English
Language : French
Language : French
Language : Spanish
Language : Spanish
Language : Spanish
Language : Italian
Language : Italian
Language : German
Language : German
Language : Dutch
Language : Dutch
Language : Swedish
Language : Swedish
Language : Norwegian
Language : Norwegian
Language : Danish
Language : Danish
Language : Finnish
Language : Finnish
Language : Czech
Language : Polish
Language : Japanese
Language : Japanese
Language : Chinese
Language : Chinese
Default : No
Forced : No

DOWNLOAD LINK

Maze Runner The Death Cure (2018) x 1604 (2160p) HDR 5 1 x265 10b Maze Runner The Death Cure (2018) x 1604 (2160p) HDR 5 1 x265 10b


Latest Top Searches of peoples:

Download Maze Runner The Death Cure (2018) x 1604 (2160p) HDR 5 1 x265 10b Full Movie Torrent HD Quality.

Torrent Maze Runner The Death Cure (2018) x 1604 (2160p) HDR 5 1 x265 10b Download

Download Free Maze Runner The Death Cure (2018) x 1604 (2160p) HDR 5 1 x265 10b Torrent

Download Maze Runner The Death Cure (2018) x 1604 (2160p) HDR 5 1 x265 10b Torrent - Kickass Torrents.

Maze Runner The Death Cure (2018) x 1604 (2160p) HDR 5 1 x265 10b Download Torrent - Extratorrent.

Maze Runner The Death Cure (2018) x 1604 (2160p) HDR 5 1 x265 10b Downlaod - torrentz.in

Download Maze Runner The Death Cure (2018) x 1604 (2160p) HDR 5 1 x265 10b Torrent - bitsnoop..

Torrent Maze Runner The Death Cure (2018) x 1604 (2160p) HDR 5 1 x265 10b Download - Nyaa.se

Maze Runner The Death Cure (2018) x 1604 (2160p) HDR 5 1 x265 10b HD Full Download Free 2017 - Welltorrent.com.



People also Search for:

  • • Download Maze Runner The Death Cure (2018) x 1604 (2160p) HDR 5 1 x265 10b Torrent 1080p
  • • Torrent Maze Runner The Death Cure (2018) x 1604 (2160p) HDR 5 1 x265 10b Download DVDRip
  • • Download Maze Runner The Death Cure (2018) x 1604 (2160p) HDR 5 1 x265 10b Torrent 720p
  • • Maze Runner The Death Cure (2018) x 1604 (2160p) HDR 5 1 x265 10b High Resolution Torrent Result
  • • Download Maze Runner The Death Cure (2018) x 1604 (2160p) HDR 5 1 x265 10b Bluray Torrent
  • • Xvid Torrent Maze Runner The Death Cure (2018) x 1604 (2160p) HDR 5 1 x265 10b Download
  • • Download Maze Runner The Death Cure (2018) x 1604 (2160p) HDR 5 1 x265 10b Torrent Full HD
  • • Torrent Maze Runner The Death Cure (2018) x 1604 (2160p) HDR 5 1 x265 10b HDRip Download
  • • Download Maze Runner The Death Cure (2018) x 1604 (2160p) HDR 5 1 x265 10b Torrent Multi Language
  • • Maze Runner The Death Cure (2018) x 1604 (2160p) HDR 5 1 x265 10b Download Multi-Subs Torrent


Tagged with:

Related Movies Torrents