Home / Insidious The Last Key (2018) 720p BluRay x264 [Dual-Audio][Engli

Insidious The Last Key (2018) 720p BluRay x264 [Dual-Audio][Engli

date added 1 week ago   
post views 22 views   
torrent id ID: 496521

Torrent Description: This is a New Way to Download The Movie Insidious The Last Key (2018) 720p BluRay x264 [Dual-Audio][Engli Movie Torrent in HD Quality. Insidious The Last Key (2018) 720p BluRay x264 [Dual-Audio][Engli DVD Print, 1080p, 720p and Bluray. If you facing any problem Downloading Insidious The Last Key (2018) 720p BluRay x264 [Dual-Audio][Engli Movie Torrent. Scroll Down to Get Download Link.

  • Category : Movies
  • Type : Dubs/Dual Audio
  • Language : Hindi
  • Total size : 1.0 GB
  • Uploaded By : Mafiaking-Mafiaking












Ratings: 5.7/10

Genere:       Horror, Mystery, Thriller

General
Complete name : Insidious The Last Key (2018) 720p BluRay x264 [Dual-Audio][English DD 5.1+Hindi DD 5.1] - Mafiaking - M2Tv.mkv
Format : Matroska
Format version : Version 4 / Version 2
File size : 1.01 GiB
Duration : 1 h 43 min
Overall bit rate : 1 400 kb/s
Video
ID : 1
Format : AVC
Codec ID : V_MPEG4/ISO/AVC
Duration : 1 h 43 min
Bit rate : 950 kb/s
Width : 1 280 pixels
Height : 536 pixels
Stream size : 703 MiB (68%)
Title : Mafiaking
Language : English
Default : Yes
Forced : No

Audio #1
ID : 2
Format : AC-3
Duration : 1 h 43 min
Bit rate mode : Constant
Bit rate : 224 kb/s
Channel(s) : 6 channels
Stream size : 165 MiB (16%)
Title : Mafiaking
Language : Hindi
Service kind : Complete Main
Default : Yes

Audio #2
ID : 3
Format : AC-3
Duration : 1 h 43 min
Bit rate mode : Constant
Bit rate : 224 kb/s
Channel(s) : 6 channels
Stream size : 166 MiB (16%)
Title : Mafiaking
Language : English
Service kind : Complete Main
Forced : No

SAMPLE WITH IN TORRENT

[/quote]

**To View Image In Full Size Click on Thumbnails**



DOWNLOAD LINK

Insidious The Last Key (2018) 720p BluRay x264 [Dual-Audio][Engli Insidious The Last Key (2018) 720p BluRay x264 [Dual-Audio][Engli


Latest Top Searches of peoples:

Download Insidious The Last Key (2018) 720p BluRay x264 [Dual-Audio][Engli Full Movie Torrent HD Quality.

Torrent Insidious The Last Key (2018) 720p BluRay x264 [Dual-Audio][Engli Download

Download Free Insidious The Last Key (2018) 720p BluRay x264 [Dual-Audio][Engli Torrent

Download Insidious The Last Key (2018) 720p BluRay x264 [Dual-Audio][Engli Torrent - Kickass Torrents.

Insidious The Last Key (2018) 720p BluRay x264 [Dual-Audio][Engli Download Torrent - Extratorrent.

Insidious The Last Key (2018) 720p BluRay x264 [Dual-Audio][Engli Downlaod - torrentz.in

Download Insidious The Last Key (2018) 720p BluRay x264 [Dual-Audio][Engli Torrent - bitsnoop..

Torrent Insidious The Last Key (2018) 720p BluRay x264 [Dual-Audio][Engli Download - Nyaa.se

Insidious The Last Key (2018) 720p BluRay x264 [Dual-Audio][Engli HD Full Download Free 2017 - Welltorrent.com.



People also Search for:

  • • Download Insidious The Last Key (2018) 720p BluRay x264 [Dual-Audio][Engli Torrent 1080p
  • • Torrent Insidious The Last Key (2018) 720p BluRay x264 [Dual-Audio][Engli Download DVDRip
  • • Download Insidious The Last Key (2018) 720p BluRay x264 [Dual-Audio][Engli Torrent 720p
  • • Insidious The Last Key (2018) 720p BluRay x264 [Dual-Audio][Engli High Resolution Torrent Result
  • • Download Insidious The Last Key (2018) 720p BluRay x264 [Dual-Audio][Engli Bluray Torrent
  • • Xvid Torrent Insidious The Last Key (2018) 720p BluRay x264 [Dual-Audio][Engli Download
  • • Download Insidious The Last Key (2018) 720p BluRay x264 [Dual-Audio][Engli Torrent Full HD
  • • Torrent Insidious The Last Key (2018) 720p BluRay x264 [Dual-Audio][Engli HDRip Download
  • • Download Insidious The Last Key (2018) 720p BluRay x264 [Dual-Audio][Engli Torrent Multi Language
  • • Insidious The Last Key (2018) 720p BluRay x264 [Dual-Audio][Engli Download Multi-Subs Torrent


Tagged with:

Related Movies Torrents