Home / Habit 2017 720p WEB-DL x264 AC3-RiPRG

Habit 2017 720p WEB-DL x264 AC3-RiPRG

date added 1 week ago   
post views 28 views   
torrent id ID: 496553

Torrent Description: This is a New Way to Download The Movie Habit 2017 720p WEB-DL x264 AC3-RiPRG Movie Torrent in HD Quality. Habit 2017 720p WEB-DL x264 AC3-RiPRG DVD Print, 1080p, 720p and Bluray. If you facing any problem Downloading Habit 2017 720p WEB-DL x264 AC3-RiPRG Movie Torrent. Scroll Down to Get Download Link.

  • Category : Movies
  • Type : h.264/x264
  • Language : English
  • Total size : 1.8 GB
  • Uploaded By : lyrical2010-lyrical2010



Habit.2017.720p.WEB-DL.x264.AC3-RiPRG

Set within the neon drenched rain swept underbelly of Manchester, where the addicted prey on the lost and the lonely.

https://www.imdb.com/title/tt5240258/

General

Format : Matroska
Format version : Version 4 / Version 2
File size : 1.84 GiB
Duration : 1h 36mn
Overall bit rate : 2 734 Kbps
Movie name : RiPRG

Video

Format : AVC
Format/Info : Advanced Video Codec
Format profile : [email protected]
Format settings, CABAC : Yes
Format settings, ReFrames : 4 frames
Codec ID : V_MPEG4/ISO/AVC
Duration : 1h 36mn
Bit rate : 2 500 Kbps
Width : 1 280 pixels
Height : 536 pixels
Display aspect ratio : 2.40:1
Frame rate mode : Constant
Frame rate : 24.000 fps
Color space : YUV
Chroma subsampling : 4:2:0
Bit depth : 8 bits
Scan type : Progressive
Bits/(Pixel*Frame) : 0.152
Stream size : 1.65 GiB (90%)
Writing library : x264 core 148
Default : Yes
Forced : No
Color primaries : BT.709
Transfer characteristics : BT.709
Matrix coefficients : BT.709

Audio

Format : AC-3
Format/Info : Audio Coding 3
Mode extension : CM (complete main)
Format settings, Endianness : Big
Codec ID : A_AC3
Duration : 1h 36mn
Bit rate mode : Constant
Bit rate : 224 Kbps
Channel(s) : 6 channels
Channel positions : Front: L C R, Side: L R, LFE
Sampling rate : 48.0 KHz
Bit depth : 16 bits
Compression mode : Lossy
Delay relative to video : -47ms
Stream size : 155 MiB (8%)
Title : Surround
Language : English
Default : Yes
Forced : No



DOWNLOAD LINK

Habit 2017 720p WEB-DL x264 AC3-RiPRG Habit 2017 720p WEB-DL x264 AC3-RiPRG


Latest Top Searches of peoples:

Download Habit 2017 720p WEB-DL x264 AC3-RiPRG Full Movie Torrent HD Quality.

Torrent Habit 2017 720p WEB-DL x264 AC3-RiPRG Download

Download Free Habit 2017 720p WEB-DL x264 AC3-RiPRG Torrent

Download Habit 2017 720p WEB-DL x264 AC3-RiPRG Torrent - Kickass Torrents.

Habit 2017 720p WEB-DL x264 AC3-RiPRG Download Torrent - Extratorrent.

Habit 2017 720p WEB-DL x264 AC3-RiPRG Downlaod - torrentz.in

Download Habit 2017 720p WEB-DL x264 AC3-RiPRG Torrent - bitsnoop..

Torrent Habit 2017 720p WEB-DL x264 AC3-RiPRG Download - Nyaa.se

Habit 2017 720p WEB-DL x264 AC3-RiPRG HD Full Download Free 2017 - Welltorrent.com.



People also Search for:

  • • Download Habit 2017 720p WEB-DL x264 AC3-RiPRG Torrent 1080p
  • • Torrent Habit 2017 720p WEB-DL x264 AC3-RiPRG Download DVDRip
  • • Download Habit 2017 720p WEB-DL x264 AC3-RiPRG Torrent 720p
  • • Habit 2017 720p WEB-DL x264 AC3-RiPRG High Resolution Torrent Result
  • • Download Habit 2017 720p WEB-DL x264 AC3-RiPRG Bluray Torrent
  • • Xvid Torrent Habit 2017 720p WEB-DL x264 AC3-RiPRG Download
  • • Download Habit 2017 720p WEB-DL x264 AC3-RiPRG Torrent Full HD
  • • Torrent Habit 2017 720p WEB-DL x264 AC3-RiPRG HDRip Download
  • • Download Habit 2017 720p WEB-DL x264 AC3-RiPRG Torrent Multi Language
  • • Habit 2017 720p WEB-DL x264 AC3-RiPRG Download Multi-Subs Torrent


Tagged with:

Related Movies Torrents