Home / Early Man 2018 Movies 720p BluRay x264 5 1 with Sample ☻rDX☻

Early Man 2018 Movies 720p BluRay x264 5 1 with Sample ☻rDX☻

date added 1 week ago   
post views 54 views   
torrent id ID: 496501

Torrent Description: This is a New Way to Download The Movie Early Man 2018 Movies 720p BluRay x264 5 1 with Sample ☻rDX☻ Movie Torrent in HD Quality. Early Man 2018 Movies 720p BluRay x264 5 1 with Sample ☻rDX☻ DVD Print, 1080p, 720p and Bluray. If you facing any problem Downloading Early Man 2018 Movies 720p BluRay x264 5 1 with Sample ☻rDX☻ Movie Torrent. Scroll Down to Get Download Link.

  • Category : Movies
  • Type : HD
  • Language : English
  • Total size : 879.6 MB
  • Uploaded By : nehalpuja-nehalpuja

Early Man 2018 Movies 720p BluRay x264 5.1 with Sample ☻rDX☻
===============================================================================================

SCREEN SHOTS:



or

http://iphonehosting.eu/2018/5/ford/1.html

File size : 870 MiB
Duration : 1 h 28 min
Overall bit rate : 1 372 kb/s
Movie name : Early Man 2018 Movies 720p BluRay x264 5.1 ☻rDX☻

Video
ID : 2
Format : AVC
Format/Info : Advanced Video Codec
Format profile : [email protected]
Format settings, CABAC : Yes
Format settings, ReFrames : 4 frames
Codec ID : V_MPEG4/ISO/AVC
Duration : 1 h 28 min
Bit rate : 923 kb/s
Width : 1 280 pixels
Height : 696 pixels
Display aspect ratio : 1.85:1
Frame rate mode : Constant
Frame rate : 23.976 (24000/1001) FPS
Color space : YUV
Chroma subsampling : 4:2:0
Bit depth : 8 bits
Scan type : Progressive
Bits/(Pixel*Frame) : 0.043
Stream size : 569 MiB (65%)
Title : ☻rDX☻
Writing library : x264

Audio
ID : 1
Format : AC-3
Format/Info : Audio Coding 3
Mode extension : CM (complete main)
Format settings, Endianness : Big
Codec ID : A_AC3
Duration : 1 h 28 min
Bit rate mode : Constant
Bit rate : 448 kb/s
Channel(s) : 6 channels
Channel positions : Front: L C R, Side: L R, LFE
Sampling rate : 48.0 kHz
Frame rate : 31.250 FPS (1536 spf)
Bit depth : 16 bits
Compression mode : Lossy
Delay relative to video : -21 ms
Stream size : 284 MiB (33%)
Title : ☻rDX☻
Default : Yes
Forced : No



IMDB : https://www.imdb.com/title/tt4701724

DOWNLOAD LINK

Early Man 2018 Movies 720p BluRay x264 5 1 with Sample ☻rDX☻ Early Man 2018 Movies 720p BluRay x264 5 1 with Sample ☻rDX☻


Latest Top Searches of peoples:

Download Early Man 2018 Movies 720p BluRay x264 5 1 with Sample ☻rDX☻ Full Movie Torrent HD Quality.

Torrent Early Man 2018 Movies 720p BluRay x264 5 1 with Sample ☻rDX☻ Download

Download Free Early Man 2018 Movies 720p BluRay x264 5 1 with Sample ☻rDX☻ Torrent

Download Early Man 2018 Movies 720p BluRay x264 5 1 with Sample ☻rDX☻ Torrent - Kickass Torrents.

Early Man 2018 Movies 720p BluRay x264 5 1 with Sample ☻rDX☻ Download Torrent - Extratorrent.

Early Man 2018 Movies 720p BluRay x264 5 1 with Sample ☻rDX☻ Downlaod - torrentz.in

Download Early Man 2018 Movies 720p BluRay x264 5 1 with Sample ☻rDX☻ Torrent - bitsnoop..

Torrent Early Man 2018 Movies 720p BluRay x264 5 1 with Sample ☻rDX☻ Download - Nyaa.se

Early Man 2018 Movies 720p BluRay x264 5 1 with Sample ☻rDX☻ HD Full Download Free 2017 - Welltorrent.com.



People also Search for:

  • • Download Early Man 2018 Movies 720p BluRay x264 5 1 with Sample ☻rDX☻ Torrent 1080p
  • • Torrent Early Man 2018 Movies 720p BluRay x264 5 1 with Sample ☻rDX☻ Download DVDRip
  • • Download Early Man 2018 Movies 720p BluRay x264 5 1 with Sample ☻rDX☻ Torrent 720p
  • • Early Man 2018 Movies 720p BluRay x264 5 1 with Sample ☻rDX☻ High Resolution Torrent Result
  • • Download Early Man 2018 Movies 720p BluRay x264 5 1 with Sample ☻rDX☻ Bluray Torrent
  • • Xvid Torrent Early Man 2018 Movies 720p BluRay x264 5 1 with Sample ☻rDX☻ Download
  • • Download Early Man 2018 Movies 720p BluRay x264 5 1 with Sample ☻rDX☻ Torrent Full HD
  • • Torrent Early Man 2018 Movies 720p BluRay x264 5 1 with Sample ☻rDX☻ HDRip Download
  • • Download Early Man 2018 Movies 720p BluRay x264 5 1 with Sample ☻rDX☻ Torrent Multi Language
  • • Early Man 2018 Movies 720p BluRay x264 5 1 with Sample ☻rDX☻ Download Multi-Subs Torrent


Tagged with:

Related Movies Torrents