Home / Disobedience 2018 720p HDCAM X264-SugarTits

Disobedience 2018 720p HDCAM X264-SugarTits

date added 1 week ago   
post views 53 views   
torrent id ID: 496559

Torrent Description: This is a New Way to Download The Movie Disobedience 2018 720p HDCAM X264-SugarTits Movie Torrent in HD Quality. Disobedience 2018 720p HDCAM X264-SugarTits DVD Print, 1080p, 720p and Bluray. If you facing any problem Downloading Disobedience 2018 720p HDCAM X264-SugarTits Movie Torrent. Scroll Down to Get Download Link.

  • Category : Movies
  • Type : Divx/Xvid
  • Language : English
  • Total size : 1.7 GB
  • Uploaded By : mazemaze16-mazemaze16






Format : MPEG-4
File size : 1.66 GiB
Duration : 1 h 49 min
Overall bit rate mode : Variable
Overall bit rate : 2 176 kb/s

Video
ID : 1
Format : AVC
Format/Info : Advanced Video Codec
Format profile : [email protected]
Format settings : CABAC / 2 Ref Frames
Format settings, CABAC : Yes
Format settings, ReFrames : 2 frames
Format settings, GOP : M=2, N=30
Codec ID : avc1
Codec ID/Info : Advanced Video Coding
Duration : 1 h 49 min
Bit rate mode : Variable
Bit rate : 2 046 kb/s
Maximum bit rate : 768 kb/s
Width : 1 280 pixels
Height : 720 pixels
Display aspect ratio : 16:9
Frame rate mode : Constant
Frame rate : 30.000 FPS
Color space : YUV
Chroma subsampling : 4:2:0
Bit depth : 8 bits
Scan type : Progressive
Bits/(Pixel*Frame) : 0.074
Stream size : 1.56 GiB (94%)
Language : English

Audio
ID : 2
Format : AAC
Format/Info : Advanced Audio Codec
Format profile : LC
Codec ID : mp4a-40-2
Duration : 1 h 49 min
Source duration : 1 h 49 min
Bit rate mode : Variable
Bit rate : 125 kb/s
Maximum bit rate : 197 kb/s
Channel(s) : 2 channel
Channel positions : Front: L R
Sampling rate : 48.0 kHz
Frame rate : 46.875 FPS (1024 SPF)
Compression mode : Lossy
Stream size : 98.0 MiB (6%)
Source stream size : 98.0 MiB (6%)
Language : English





DOWNLOAD LINK

Disobedience 2018 720p HDCAM X264-SugarTits Disobedience 2018 720p HDCAM X264-SugarTits


Latest Top Searches of peoples:

Download Disobedience 2018 720p HDCAM X264-SugarTits Full Movie Torrent HD Quality.

Torrent Disobedience 2018 720p HDCAM X264-SugarTits Download

Download Free Disobedience 2018 720p HDCAM X264-SugarTits Torrent

Download Disobedience 2018 720p HDCAM X264-SugarTits Torrent - Kickass Torrents.

Disobedience 2018 720p HDCAM X264-SugarTits Download Torrent - Extratorrent.

Disobedience 2018 720p HDCAM X264-SugarTits Downlaod - torrentz.in

Download Disobedience 2018 720p HDCAM X264-SugarTits Torrent - bitsnoop..

Torrent Disobedience 2018 720p HDCAM X264-SugarTits Download - Nyaa.se

Disobedience 2018 720p HDCAM X264-SugarTits HD Full Download Free 2017 - Welltorrent.com.



People also Search for:

  • • Download Disobedience 2018 720p HDCAM X264-SugarTits Torrent 1080p
  • • Torrent Disobedience 2018 720p HDCAM X264-SugarTits Download DVDRip
  • • Download Disobedience 2018 720p HDCAM X264-SugarTits Torrent 720p
  • • Disobedience 2018 720p HDCAM X264-SugarTits High Resolution Torrent Result
  • • Download Disobedience 2018 720p HDCAM X264-SugarTits Bluray Torrent
  • • Xvid Torrent Disobedience 2018 720p HDCAM X264-SugarTits Download
  • • Download Disobedience 2018 720p HDCAM X264-SugarTits Torrent Full HD
  • • Torrent Disobedience 2018 720p HDCAM X264-SugarTits HDRip Download
  • • Download Disobedience 2018 720p HDCAM X264-SugarTits Torrent Multi Language
  • • Disobedience 2018 720p HDCAM X264-SugarTits Download Multi-Subs Torrent


Tagged with:

Related Movies Torrents