Home / American Folk 2017 Movies HDRip x264 5 1 ESubs with Sample ☻rDX☻

American Folk 2017 Movies HDRip x264 5 1 ESubs with Sample ☻rDX☻

date added 1 week ago   
post views 26 views   
torrent id ID: 496560

Torrent Description: This is a New Way to Download The Movie American Folk 2017 Movies HDRip x264 5 1 ESubs with Sample ☻rDX☻ Movie Torrent in HD Quality. American Folk 2017 Movies HDRip x264 5 1 ESubs with Sample ☻rDX☻ DVD Print, 1080p, 720p and Bluray. If you facing any problem Downloading American Folk 2017 Movies HDRip x264 5 1 ESubs with Sample ☻rDX☻ Movie Torrent. Scroll Down to Get Download Link.

  • Category : Movies
  • Type : HD
  • Language : English
  • Total size : 847.1 MB
  • Uploaded By : nehalpuja-nehalpuja

American Folk 2017 Movies HDRip x264 5.1 ESubs with Sample ☻rDX☻
===============================================================================================

SCREEN SHOTS:



or

http://iphonehosting.eu/2018/5/fast/1.html

File size : 839 MiB
Duration : 1 h 39 min
Overall bit rate : 1 180 kb/s
Movie name : American Folk 2017 Movies HDRip x264 5.1 ESubs ☻rDX☻

Video
ID : 2
Format : AVC
Format/Info : Advanced Video Codec
Format profile : [email protected]
Format settings, CABAC : Yes
Format settings, ReFrames : 2 frames
Format settings, GOP : M=1, N=12
Codec ID : V_MPEG4/ISO/AVC
Duration : 1 h 39 min
Bit rate mode : Constant
Bit rate : 797 kb/s
Width : 720 pixels
Height : 304 pixels
Display aspect ratio : 2.35:1
Frame rate mode : Constant
Frame rate : 23.976 (24000/1001) FPS
Color space : YUV
Chroma subsampling : 4:2:0
Bit depth : 8 bits
Scan type : Progressive
Bits/(Pixel*Frame) : 0.152
Stream size : 549 MiB (65%)
Title : ☻rDX☻
Default : Yes
Forced : No

Audio
ID : 1
Format : AC-3
Format/Info : Audio Coding 3
Mode extension : CM (complete main)
Format settings, Endianness : Big
Codec ID : A_AC3
Duration : 1 h 39 min
Bit rate mode : Constant
Bit rate : 384 kb/s
Channel(s) : 6 channels
Channel positions : Front: L C R, Side: L R, LFE
Sampling rate : 48.0 kHz
Frame rate : 31.250 FPS (1536 spf)
Bit depth : 16 bits
Compression mode : Lossy
Stream size : 273 MiB (33%)
Title : ☻rDX☻
Language : English
Default : Yes
Forced : No

Text
ID : 3
Format : UTF-8
Codec ID : S_TEXT/UTF8
Codec ID/Info : UTF-8 Plain Text
Title : ☻rDX☻
Default : Yes
Forced : No



IMDB : https://www.imdb.com/title/tt4998222

DOWNLOAD LINK

American Folk 2017 Movies HDRip x264 5 1 ESubs with Sample ☻rDX☻ American Folk 2017 Movies HDRip x264 5 1 ESubs with Sample ☻rDX☻


Latest Top Searches of peoples:

Download American Folk 2017 Movies HDRip x264 5 1 ESubs with Sample ☻rDX☻ Full Movie Torrent HD Quality.

Torrent American Folk 2017 Movies HDRip x264 5 1 ESubs with Sample ☻rDX☻ Download

Download Free American Folk 2017 Movies HDRip x264 5 1 ESubs with Sample ☻rDX☻ Torrent

Download American Folk 2017 Movies HDRip x264 5 1 ESubs with Sample ☻rDX☻ Torrent - Kickass Torrents.

American Folk 2017 Movies HDRip x264 5 1 ESubs with Sample ☻rDX☻ Download Torrent - Extratorrent.

American Folk 2017 Movies HDRip x264 5 1 ESubs with Sample ☻rDX☻ Downlaod - torrentz.in

Download American Folk 2017 Movies HDRip x264 5 1 ESubs with Sample ☻rDX☻ Torrent - bitsnoop..

Torrent American Folk 2017 Movies HDRip x264 5 1 ESubs with Sample ☻rDX☻ Download - Nyaa.se

American Folk 2017 Movies HDRip x264 5 1 ESubs with Sample ☻rDX☻ HD Full Download Free 2017 - Welltorrent.com.



People also Search for:

  • • Download American Folk 2017 Movies HDRip x264 5 1 ESubs with Sample ☻rDX☻ Torrent 1080p
  • • Torrent American Folk 2017 Movies HDRip x264 5 1 ESubs with Sample ☻rDX☻ Download DVDRip
  • • Download American Folk 2017 Movies HDRip x264 5 1 ESubs with Sample ☻rDX☻ Torrent 720p
  • • American Folk 2017 Movies HDRip x264 5 1 ESubs with Sample ☻rDX☻ High Resolution Torrent Result
  • • Download American Folk 2017 Movies HDRip x264 5 1 ESubs with Sample ☻rDX☻ Bluray Torrent
  • • Xvid Torrent American Folk 2017 Movies HDRip x264 5 1 ESubs with Sample ☻rDX☻ Download
  • • Download American Folk 2017 Movies HDRip x264 5 1 ESubs with Sample ☻rDX☻ Torrent Full HD
  • • Torrent American Folk 2017 Movies HDRip x264 5 1 ESubs with Sample ☻rDX☻ HDRip Download
  • • Download American Folk 2017 Movies HDRip x264 5 1 ESubs with Sample ☻rDX☻ Torrent Multi Language
  • • American Folk 2017 Movies HDRip x264 5 1 ESubs with Sample ☻rDX☻ Download Multi-Subs Torrent


Tagged with:

Related Movies Torrents