Home / American Folk 2017 Movies 720p HDRip x264 5 1 ESubs with Sample ☻

American Folk 2017 Movies 720p HDRip x264 5 1 ESubs with Sample ☻

date added 1 week ago   
post views 32 views   
torrent id ID: 496569

Torrent Description: This is a New Way to Download The Movie American Folk 2017 Movies 720p HDRip x264 5 1 ESubs with Sample ☻ Movie Torrent in HD Quality. American Folk 2017 Movies 720p HDRip x264 5 1 ESubs with Sample ☻ DVD Print, 1080p, 720p and Bluray. If you facing any problem Downloading American Folk 2017 Movies 720p HDRip x264 5 1 ESubs with Sample ☻ Movie Torrent. Scroll Down to Get Download Link.

  • Category : Movies
  • Type : HD
  • Language : English
  • Total size : 1.0 GB
  • Uploaded By : nehalpuja-nehalpuja

American Folk 2017 Movies 720p HDRip x264 5.1 ESubs with Sample ☻rDX☻
===============================================================================================

SCREEN SHOTS:



or

http://iphonehosting.eu/2018/5/europe/1.html

File size : 1.03 GiB
Duration : 1 h 39 min
Overall bit rate : 1 486 kb/s
Movie name : American Folk 2017 Movies 720p HDRip x264 5.1 ESubs ☻rDX☻

Video
ID : 2
Format : AVC
Format/Info : Advanced Video Codec
Format profile : [email protected]
Format settings, CABAC : Yes
Format settings, ReFrames : 4 frames
Codec ID : V_MPEG4/ISO/AVC
Duration : 1 h 39 min
Bit rate : 1 100 kb/s
Width : 1 280 pixels
Height : 532 pixels
Display aspect ratio : 2.40:1
Original display aspect ratio : 2.40:1
Frame rate mode : Constant
Frame rate : 23.810 FPS
Color space : YUV
Chroma subsampling : 4:2:0
Bit depth : 8 bits
Scan type : Progressive
Bits/(Pixel*Frame) : 0.068
Stream size : 762 MiB (72%)
Title : ☻rDX☻
Writing library : x264

Audio
ID : 1
Format : AC-3
Format/Info : Audio Coding 3
Mode extension : CM (complete main)
Format settings, Endianness : Big
Codec ID : A_AC3
Duration : 1 h 39 min
Bit rate mode : Constant
Bit rate : 384 kb/s
Channel(s) : 6 channels
Channel positions : Front: L C R, Side: L R, LFE
Sampling rate : 48.0 kHz
Frame rate : 31.250 FPS (1536 spf)
Bit depth : 16 bits
Compression mode : Lossy
Stream size : 273 MiB (26%)
Title : ☻rDX☻Surround
Language : English
Default : Yes
Forced : No

Text
ID : 3
Format : UTF-8
Codec ID : S_TEXT/UTF8
Codec ID/Info : UTF-8 Plain Text
Title : ☻rDX☻
Default : Yes
Forced : No



IMDB : https://www.imdb.com/title/tt4998222

DOWNLOAD LINK

American Folk 2017 Movies 720p HDRip x264 5 1 ESubs with Sample ☻ American Folk 2017 Movies 720p HDRip x264 5 1 ESubs with Sample ☻


Latest Top Searches of peoples:

Download American Folk 2017 Movies 720p HDRip x264 5 1 ESubs with Sample ☻ Full Movie Torrent HD Quality.

Torrent American Folk 2017 Movies 720p HDRip x264 5 1 ESubs with Sample ☻ Download

Download Free American Folk 2017 Movies 720p HDRip x264 5 1 ESubs with Sample ☻ Torrent

Download American Folk 2017 Movies 720p HDRip x264 5 1 ESubs with Sample ☻ Torrent - Kickass Torrents.

American Folk 2017 Movies 720p HDRip x264 5 1 ESubs with Sample ☻ Download Torrent - Extratorrent.

American Folk 2017 Movies 720p HDRip x264 5 1 ESubs with Sample ☻ Downlaod - torrentz.in

Download American Folk 2017 Movies 720p HDRip x264 5 1 ESubs with Sample ☻ Torrent - bitsnoop..

Torrent American Folk 2017 Movies 720p HDRip x264 5 1 ESubs with Sample ☻ Download - Nyaa.se

American Folk 2017 Movies 720p HDRip x264 5 1 ESubs with Sample ☻ HD Full Download Free 2017 - Welltorrent.com.



People also Search for:

  • • Download American Folk 2017 Movies 720p HDRip x264 5 1 ESubs with Sample ☻ Torrent 1080p
  • • Torrent American Folk 2017 Movies 720p HDRip x264 5 1 ESubs with Sample ☻ Download DVDRip
  • • Download American Folk 2017 Movies 720p HDRip x264 5 1 ESubs with Sample ☻ Torrent 720p
  • • American Folk 2017 Movies 720p HDRip x264 5 1 ESubs with Sample ☻ High Resolution Torrent Result
  • • Download American Folk 2017 Movies 720p HDRip x264 5 1 ESubs with Sample ☻ Bluray Torrent
  • • Xvid Torrent American Folk 2017 Movies 720p HDRip x264 5 1 ESubs with Sample ☻ Download
  • • Download American Folk 2017 Movies 720p HDRip x264 5 1 ESubs with Sample ☻ Torrent Full HD
  • • Torrent American Folk 2017 Movies 720p HDRip x264 5 1 ESubs with Sample ☻ HDRip Download
  • • Download American Folk 2017 Movies 720p HDRip x264 5 1 ESubs with Sample ☻ Torrent Multi Language
  • • American Folk 2017 Movies 720p HDRip x264 5 1 ESubs with Sample ☻ Download Multi-Subs Torrent


Tagged with:

Related Movies Torrents