Home / A Violent Man 2017 720p WEB-DL x264 AC3-RiPRG

A Violent Man 2017 720p WEB-DL x264 AC3-RiPRG

date added 1 week ago   
post views 28 views   
torrent id ID: 496548

Torrent Description: This is a New Way to Download The Movie A Violent Man 2017 720p WEB-DL x264 AC3-RiPRG Movie Torrent in HD Quality. A Violent Man 2017 720p WEB-DL x264 AC3-RiPRG DVD Print, 1080p, 720p and Bluray. If you facing any problem Downloading A Violent Man 2017 720p WEB-DL x264 AC3-RiPRG Movie Torrent. Scroll Down to Get Download Link.

  • Category : Movies
  • Type : h.264/x264
  • Language : English
  • Total size : 2.0 GB
  • Uploaded By : lyrical2010-lyrical2010



A.Violent.Man.2017.720p.WEB-DL.x264.AC3-RiPRG

A struggling mixed martial arts fighter finds himself in a fight for his life after his one night stand is found dead in her home.

https://www.imdb.com/title/tt6162892/

General

Format : Matroska
Format version : Version 4 / Version 2
File size : 2.02 GiB
Duration : 1h 47mn
Overall bit rate : 2 702 Kbps
Movie name : RiPRG

Video

Format : AVC
Format/Info : Advanced Video Codec
Format profile : [email protected]
Format settings, CABAC : Yes
Format settings, ReFrames : 4 frames
Codec ID : V_MPEG4/ISO/AVC
Duration : 1h 47mn
Bit rate : 2 500 Kbps
Width : 1 280 pixels
Height : 648 pixels
Display aspect ratio : 1.975
Frame rate mode : Constant
Frame rate : 23.976 fps
Color space : YUV
Chroma subsampling : 4:2:0
Bit depth : 8 bits
Scan type : Progressive
Bits/(Pixel*Frame) : 0.126
Stream size : 1.82 GiB (90%)
Writing library : x264 core 148
Default : Yes
Forced : No
Color primaries : BT.709
Transfer characteristics : BT.709
Matrix coefficients : BT.709

Audio

Format : AC-3
Format/Info : Audio Coding 3
Mode extension : CM (complete main)
Format settings, Endianness : Big
Codec ID : A_AC3
Duration : 1h 47mn
Bit rate mode : Constant
Bit rate : 224 Kbps
Channel(s) : 6 channels
Channel positions : Front: L C R, Side: L R, LFE
Sampling rate : 48.0 KHz
Bit depth : 16 bits
Compression mode : Lossy
Delay relative to video : -47ms
Stream size : 172 MiB (8%)
Title : Surround
Language : English
Default : Yes
Forced : No


DOWNLOAD LINK

A Violent Man 2017 720p WEB-DL x264 AC3-RiPRG A Violent Man 2017 720p WEB-DL x264 AC3-RiPRG


Latest Top Searches of peoples:

Download A Violent Man 2017 720p WEB-DL x264 AC3-RiPRG Full Movie Torrent HD Quality.

Torrent A Violent Man 2017 720p WEB-DL x264 AC3-RiPRG Download

Download Free A Violent Man 2017 720p WEB-DL x264 AC3-RiPRG Torrent

Download A Violent Man 2017 720p WEB-DL x264 AC3-RiPRG Torrent - Kickass Torrents.

A Violent Man 2017 720p WEB-DL x264 AC3-RiPRG Download Torrent - Extratorrent.

A Violent Man 2017 720p WEB-DL x264 AC3-RiPRG Downlaod - torrentz.in

Download A Violent Man 2017 720p WEB-DL x264 AC3-RiPRG Torrent - bitsnoop..

Torrent A Violent Man 2017 720p WEB-DL x264 AC3-RiPRG Download - Nyaa.se

A Violent Man 2017 720p WEB-DL x264 AC3-RiPRG HD Full Download Free 2017 - Welltorrent.com.



People also Search for:

  • • Download A Violent Man 2017 720p WEB-DL x264 AC3-RiPRG Torrent 1080p
  • • Torrent A Violent Man 2017 720p WEB-DL x264 AC3-RiPRG Download DVDRip
  • • Download A Violent Man 2017 720p WEB-DL x264 AC3-RiPRG Torrent 720p
  • • A Violent Man 2017 720p WEB-DL x264 AC3-RiPRG High Resolution Torrent Result
  • • Download A Violent Man 2017 720p WEB-DL x264 AC3-RiPRG Bluray Torrent
  • • Xvid Torrent A Violent Man 2017 720p WEB-DL x264 AC3-RiPRG Download
  • • Download A Violent Man 2017 720p WEB-DL x264 AC3-RiPRG Torrent Full HD
  • • Torrent A Violent Man 2017 720p WEB-DL x264 AC3-RiPRG HDRip Download
  • • Download A Violent Man 2017 720p WEB-DL x264 AC3-RiPRG Torrent Multi Language
  • • A Violent Man 2017 720p WEB-DL x264 AC3-RiPRG Download Multi-Subs Torrent


Tagged with:

Related Movies Torrents