Home / 18+ Habit 2017 UNCENSORED Movies 720p HDRip x264 5 1 with Sample

18+ Habit 2017 UNCENSORED Movies 720p HDRip x264 5 1 with Sample

date added 1 week ago   
post views 51 views   
torrent id ID: 496566

Torrent Description: This is a New Way to Download The Movie 18+ Habit 2017 UNCENSORED Movies 720p HDRip x264 5 1 with Sample Movie Torrent in HD Quality. 18+ Habit 2017 UNCENSORED Movies 720p HDRip x264 5 1 with Sample DVD Print, 1080p, 720p and Bluray. If you facing any problem Downloading 18+ Habit 2017 UNCENSORED Movies 720p HDRip x264 5 1 with Sample Movie Torrent. Scroll Down to Get Download Link.

  • Category : Movies
  • Type : HD
  • Language : English
  • Total size : 903.8 MB
  • Uploaded By : nehalpuja-nehalpuja

18+ Habit 2017 UNCENSORED Movies 720p HDRip x264 5.1 with Sample ☻rDX☻
===============================================================================================

SCREEN SHOTS:



or

http://iphonehosting.eu/2018/5/fixed/1.html

File size                                : 894 MiB
Duration                                 : 1 h 36 min
Overall bit rate                         : 1 296 kb/s
Movie name                               : 18+ Habit 2017 UNCENSORED Movies 720p HDRip x264 AAC ☻rDX☻

Video
ID                                       : 2
Format                                   : AVC
Format/Info                              : Advanced Video Codec
Format profile                           : [email protected]
Format settings, CABAC                   : Yes
Format settings, ReFrames                : 4 frames
Codec ID                                 : V_MPEG4/ISO/AVC
Duration                                 : 1 h 36 min
Bit rate                                 : 910 kb/s
Width                                    : 1 280 pixels
Height                                   : 532 pixels
Display aspect ratio                     : 2.40:1
Frame rate mode                          : Constant
Frame rate                               : 24.000 FPS
Color space                              : YUV
Chroma subsampling                       : 4:2:0
Bit depth                                : 8 bits
Scan type                                : Progressive
Bits/(Pixel*Frame)                       : 0.056
Stream size                              : 611 MiB (68%)
Title                                    : ☻rDX☻
Writing library                          : x264

Audio
ID                                       : 1
Format                                   : AC-3
Format/Info                              : Audio Coding 3
Mode extension                           : CM (complete main)
Format settings, Endianness              : Big
Codec ID                                 : A_AC3
Duration                                 : 1 h 36 min
Bit rate mode                            : Constant
Bit rate                                 : 384 kb/s
Channel(s)                               : 6 channels
Channel positions                        : Front: L C R, Side: L R, LFE
Sampling rate                            : 48.0 kHz
Frame rate                               : 31.250 FPS (1536 spf)
Bit depth                                : 16 bits
Compression mode                         : Lossy
Delay relative to video                  : -42 ms
Stream size                              : 265 MiB (30%)
Title                                    : ☻rDX☻
Default                                  : Yes
Forced                                   : No



IMDB                                     : https://www.imdb.com/title/tt5240258

DOWNLOAD LINK

18+ Habit 2017 UNCENSORED Movies 720p HDRip x264 5 1 with Sample 18+ Habit 2017 UNCENSORED Movies 720p HDRip x264 5 1 with Sample


Latest Top Searches of peoples:

Download 18+ Habit 2017 UNCENSORED Movies 720p HDRip x264 5 1 with Sample Full Movie Torrent HD Quality.

Torrent 18+ Habit 2017 UNCENSORED Movies 720p HDRip x264 5 1 with Sample Download

Download Free 18+ Habit 2017 UNCENSORED Movies 720p HDRip x264 5 1 with Sample Torrent

Download 18+ Habit 2017 UNCENSORED Movies 720p HDRip x264 5 1 with Sample Torrent - Kickass Torrents.

18+ Habit 2017 UNCENSORED Movies 720p HDRip x264 5 1 with Sample Download Torrent - Extratorrent.

18+ Habit 2017 UNCENSORED Movies 720p HDRip x264 5 1 with Sample Downlaod - torrentz.in

Download 18+ Habit 2017 UNCENSORED Movies 720p HDRip x264 5 1 with Sample Torrent - bitsnoop..

Torrent 18+ Habit 2017 UNCENSORED Movies 720p HDRip x264 5 1 with Sample Download - Nyaa.se

18+ Habit 2017 UNCENSORED Movies 720p HDRip x264 5 1 with Sample HD Full Download Free 2017 - Welltorrent.com.



People also Search for:

  • • Download 18+ Habit 2017 UNCENSORED Movies 720p HDRip x264 5 1 with Sample Torrent 1080p
  • • Torrent 18+ Habit 2017 UNCENSORED Movies 720p HDRip x264 5 1 with Sample Download DVDRip
  • • Download 18+ Habit 2017 UNCENSORED Movies 720p HDRip x264 5 1 with Sample Torrent 720p
  • • 18+ Habit 2017 UNCENSORED Movies 720p HDRip x264 5 1 with Sample High Resolution Torrent Result
  • • Download 18+ Habit 2017 UNCENSORED Movies 720p HDRip x264 5 1 with Sample Bluray Torrent
  • • Xvid Torrent 18+ Habit 2017 UNCENSORED Movies 720p HDRip x264 5 1 with Sample Download
  • • Download 18+ Habit 2017 UNCENSORED Movies 720p HDRip x264 5 1 with Sample Torrent Full HD
  • • Torrent 18+ Habit 2017 UNCENSORED Movies 720p HDRip x264 5 1 with Sample HDRip Download
  • • Download 18+ Habit 2017 UNCENSORED Movies 720p HDRip x264 5 1 with Sample Torrent Multi Language
  • • 18+ Habit 2017 UNCENSORED Movies 720p HDRip x264 5 1 with Sample Download Multi-Subs Torrent


Tagged with:

Related Movies Torrents