Home / 18+ A Violent Man 2017 UNCENSORED Movies 720p HDRip x264 5 1 with

18+ A Violent Man 2017 UNCENSORED Movies 720p HDRip x264 5 1 with

date added 1 week ago   
post views 42 views   
torrent id ID: 496502

Torrent Description: This is a New Way to Download The Movie 18+ A Violent Man 2017 UNCENSORED Movies 720p HDRip x264 5 1 with Movie Torrent in HD Quality. 18+ A Violent Man 2017 UNCENSORED Movies 720p HDRip x264 5 1 with DVD Print, 1080p, 720p and Bluray. If you facing any problem Downloading 18+ A Violent Man 2017 UNCENSORED Movies 720p HDRip x264 5 1 with Movie Torrent. Scroll Down to Get Download Link.

  • Category : Movies
  • Type : HD
  • Language : English
  • Total size : 1,011.4 MB
  • Uploaded By : nehalpuja-nehalpuja

18+ A Violent Man 2017 UNCENSORED Movies 720p HDRip x264 5.1 with Sample ☻rDX☻
===============================================================================================

SCREEN SHOTS:



or

http://iphonehosting.eu/2018/5/free/1.html

File size : 1 002 MiB
Duration : 1 h 47 min
Overall bit rate : 1 306 kb/s
Movie name : 18+ A Violent Man 2017 UNCENSORED Movies 720p HDRip x264 5.1 ☻rDX☻

Video
ID : 2
Format : AVC
Format/Info : Advanced Video Codec
Format profile : [email protected]
Format settings, CABAC : Yes
Format settings, ReFrames : 4 frames
Codec ID : V_MPEG4/ISO/AVC
Duration : 1 h 47 min
Bit rate : 921 kb/s
Width : 1 280 pixels
Height : 648 pixels
Display aspect ratio : 1.975
Frame rate mode : Constant
Frame rate : 23.976 (24000/1001) FPS
Color space : YUV
Chroma subsampling : 4:2:0
Bit depth : 8 bits
Scan type : Progressive
Bits/(Pixel*Frame) : 0.046
Stream size : 687 MiB (69%)
Title : ☻rDX☻
Writing library : x264

Audio
ID : 1
Format : AC-3
Format/Info : Audio Coding 3
Mode extension : CM (complete main)
Format settings, Endianness : Big
Codec ID : A_AC3
Duration : 1 h 47 min
Bit rate mode : Constant
Bit rate : 384 kb/s
Channel(s) : 6 channels
Channel positions : Front: L C R, Side: L R, LFE
Sampling rate : 48.0 kHz
Frame rate : 31.250 FPS (1536 spf)
Bit depth : 16 bits
Compression mode : Lossy
Delay relative to video : -42 ms
Stream size : 294 MiB (29%)
Title : ☻rDX☻
Default : Yes
Forced : No



IMDB : https://www.imdb.com/title/tt6162892

DOWNLOAD LINK

18+ A Violent Man 2017 UNCENSORED Movies 720p HDRip x264 5 1 with 18+ A Violent Man 2017 UNCENSORED Movies 720p HDRip x264 5 1 with


Latest Top Searches of peoples:

Download 18+ A Violent Man 2017 UNCENSORED Movies 720p HDRip x264 5 1 with Full Movie Torrent HD Quality.

Torrent 18+ A Violent Man 2017 UNCENSORED Movies 720p HDRip x264 5 1 with Download

Download Free 18+ A Violent Man 2017 UNCENSORED Movies 720p HDRip x264 5 1 with Torrent

Download 18+ A Violent Man 2017 UNCENSORED Movies 720p HDRip x264 5 1 with Torrent - Kickass Torrents.

18+ A Violent Man 2017 UNCENSORED Movies 720p HDRip x264 5 1 with Download Torrent - Extratorrent.

18+ A Violent Man 2017 UNCENSORED Movies 720p HDRip x264 5 1 with Downlaod - torrentz.in

Download 18+ A Violent Man 2017 UNCENSORED Movies 720p HDRip x264 5 1 with Torrent - bitsnoop..

Torrent 18+ A Violent Man 2017 UNCENSORED Movies 720p HDRip x264 5 1 with Download - Nyaa.se

18+ A Violent Man 2017 UNCENSORED Movies 720p HDRip x264 5 1 with HD Full Download Free 2017 - Welltorrent.com.



People also Search for:

  • • Download 18+ A Violent Man 2017 UNCENSORED Movies 720p HDRip x264 5 1 with Torrent 1080p
  • • Torrent 18+ A Violent Man 2017 UNCENSORED Movies 720p HDRip x264 5 1 with Download DVDRip
  • • Download 18+ A Violent Man 2017 UNCENSORED Movies 720p HDRip x264 5 1 with Torrent 720p
  • • 18+ A Violent Man 2017 UNCENSORED Movies 720p HDRip x264 5 1 with High Resolution Torrent Result
  • • Download 18+ A Violent Man 2017 UNCENSORED Movies 720p HDRip x264 5 1 with Bluray Torrent
  • • Xvid Torrent 18+ A Violent Man 2017 UNCENSORED Movies 720p HDRip x264 5 1 with Download
  • • Download 18+ A Violent Man 2017 UNCENSORED Movies 720p HDRip x264 5 1 with Torrent Full HD
  • • Torrent 18+ A Violent Man 2017 UNCENSORED Movies 720p HDRip x264 5 1 with HDRip Download
  • • Download 18+ A Violent Man 2017 UNCENSORED Movies 720p HDRip x264 5 1 with Torrent Multi Language
  • • 18+ A Violent Man 2017 UNCENSORED Movies 720p HDRip x264 5 1 with Download Multi-Subs Torrent


Tagged with:

Related Movies Torrents